18+

Amateur / Unknown - All Aboard The Schlong Streetcar! Transexual Train Enthusiast s Porn Debut Megumi [GUN-688] (Radix) [cen] [2020 г., Shemale, Cosplay, Debut, Anal, HDRip] [1080p]

    -
    All Aboard The Schlong Streetcar! Transexual Train Enthusiasts Porn Debut Megumi
    去在欽欽火車! 鐵塔涅半AV debut Megumi。
    -
    -
    Cтрана: Япония Жанр: Shemale, Cosplay, Debut, Anal Продолжительность: 01:59:16 Цензура: Есть во всех файлах Язык: Японский
    -Студийный код фильма: GUN-688 Студия: Radix Европейские девушки в фильме: Нет
    -
    В ролях: Amateur / Unknown
    -
    Тип HD Видео: 1080p Качество видео: HDRip Формат видео: MP4 Видео: AVC, 1920 pixels x 1080 pixels, 29.960 FPS, 5744 kb/s
    Аудио
    : AAC, 48.0 kHz, 48.0 kHz, 256 kb/s
    -

    Screenlist and screenshots

    MediaInfo

    General
    Complete name : E:poGUN-688.mp4
    Format : MPEG-4
    Format profile : Base Media
    Codec ID : isom (isom/iso2/avc1/mp41)
    File size : 4.96 GiB
    Duration : 1 h 59 min
    Overall bit rate : 5 957 kb/s
    Writing application : Lavf58.12.100
    Video
    ID : 1
    Format : AVC
    Format/Info : Advanced Video Codec
    Format profile : Main@L4
    Format settings : CABAC / 3 Ref Frames
    Format settings, CABAC : Yes
    Format settings, Reference : 3 frames
    Codec ID : avc1
    Codec ID/Info : Advanced Video Coding
    Duration : 1 h 59 min
    Bit rate : 5 744 kb/s
    Width : 1 920 pixels
    Height : 1 080 pixels
    Display aspect ratio : 16:9
    Frame rate mode : Variable
    Frame rate : 29.970 (29970/1000) FPS
    Minimum frame rate : 0.248 FPS
    Maximum frame rate : 29.970 FPS
    Color space : YUV
    Chroma subsampling : 4:2:0
    Bit depth : 8 bits
    Scan type : Progressive
    Bits/(Pixel*Frame) : 0.092
    Stream size : 4.74 GiB (96%)
    Writing library : x264 core 160 r3011 cde9a93
    Encoding settings : cabac=1 / ref=3 / deblock=1:1:0 / analyse=0x1:0x131 / me=hex / subme=7 / psy=1 / psy_rd=0.50:0.00 / mixed_ref=1 / me_range=16 / chroma_me=1 / trellis=1 / 8x8dct=0 / cqm=0 / deadzone=21,11 / fast_pskip=0 / chroma_qp_offset=-2 / threads=12 / lookahead_threads=2 / sliced_threads=0 / nr=0 / decimate=1 / interlaced=0 / bluray_compat=0 / constrained_intra=0 / bframes=3 / b_pyramid=0 / b_adapt=1 / b_bias=0 / direct=1 / weightb=1 / open_gop=0 / weightp=2 / keyint=infinite / keyint_min=60 / scenecut=0 / intra_refresh=0 / rc_lookahead=40 / rc=cbr / mbtree=1 / bitrate=5744 / ratetol=1.0 / qcomp=0.60 / qpmin=10 / qpmax=69 / qpstep=4 / vbv_maxrate=5744 / vbv_bufsize=12000 / nal_hrd=none / filler=0 / ip_ratio=1.41 / aq=1:1.00
    Color range : Limited
    Color primaries : BT.709
    Transfer characteristics : BT.709
    Matrix coefficients : BT.709
    Codec configuration box : avcC
    Audio
    ID : 2
    Format : AAC LC
    Format/Info : Advanced Audio Codec Low Complexity
    Codec ID : mp4a-40-2
    Duration : 1 h 59 min
    Bit rate mode : Constant
    Bit rate : 256 kb/s
    Channel(s) : 2 channels
    Channel layout : L R
    Sampling rate : 48.0 kHz
    Frame rate : 46.875 FPS (1024 SPF)
    Compression mode : Lossy
    Stream size : 218 MiB (4%)
    Default : Yes
    Alternate group : 1
    Download Torrent
    Размер: 4.96 GB
    Раздающих:
    Мы открыли новый порнотрекер -- Sexitorrent __ и __ 5pornotorrent.net